<?xml version="1.0" standalone="no"?>
<!DOCTYPE svg PUBLIC "-//W3C//DTD SVG 1.1//EN" "http://www.w3.org/Graphics/SVG/1.1/DTD/svg11.dtd" >
<svg xmlns="http://www.w3.org/2000/svg">
  <defs>
    <font id="QIconLab" horiz-adv-x="1024">
      <font-face
        font-family="QIconLab"
        units-per-em="1024"
        ascent="1024"
        descent="0"
      />
      <missing-glyph horiz-adv-x="0"/>
        <glyph
          glyph-name="qunar-angle_up"
          unicode="&#xf028;"
          horiz-adv-x="1024" d=" M672,417 L736,480 L512,704 L288,479 L351,416 L512,576" />
        <glyph
          glyph-name="qunar-angle_down"
          unicode="&#xf032;"
          horiz-adv-x="1024" d=" M512,448 L351,608 L288,545 L512,320 L736,544 L672,607" />
        <glyph
          glyph-name="qunar-loading_error_o"
          unicode="&#xf077;"
          horiz-adv-x="1024" d=" M824,245 L557,512 L823,778 Q832,788 832,800 Q832,812 822.5,821.5 Q813,831 800,831.5 Q787,832 778,824 L512,557 L246,824 Q237,832 224,831.5 Q211,831 201.5,821.5 Q192,812 192,800 Q192,788 201,778 L467,512 L200,245 Q192,236 192.5,223.5 Q193,211 202.5,201.5 Q212,192 224,192 Q236,192 245,200 L512,467 L779,200 Q788,192 800,192 Q812,192 821.5,201.5 Q831,211 831.5,223.5 Q832,236 824,245" />
        <glyph
          glyph-name="qunar-loading_done_o"
          unicode="&#xf078;"
          horiz-adv-x="1024" d=" M887,758 Q877,767 864.5,768 Q852,769 842,760 L416,331 L182,568 Q173,576 160,575.5 Q147,575 137.5,565.5 Q128,556 128,544 Q128,532 137,522 L395,264 Q404,255 416,255 Q428,255 437,264 L888,715 Q896,724 896,736 Q896,748 887,758" />
        <glyph
          glyph-name="qunar-enter_o"
          unicode="&#xf0ae;"
          horiz-adv-x="1024" d=" M800,704 Q786,704 777,695 Q768,686 768,672 L768,448 L237,448 L279,489 Q288,499 288,512 Q288,525 278.5,534.5 Q269,544 256,544 Q243,544 233,535 L137,439 Q137,439 133,433.5 Q129,428 129,416 Q129,404 133,398.5 Q137,393 137,393 L233,297 Q243,288 256,288 Q269,288 278.5,297.5 Q288,307 288,320 Q288,333 279,343 L237,384 L800,384 Q814,384 823,393 Q832,402 832,416 L832,672 Q832,686 823,695 Q814,704 800,704" />
        <glyph
          glyph-name="qunar-distance_o"
          unicode="&#xf0dc;"
          horiz-adv-x="1024" d=" M551,124 Q549,124 548,124 Q540,125 534,131 Q528,137 527,145 L480,480 L146,527 Q138,528 132.5,533.5 Q127,539 125.5,547 Q124,555 128,562 Q132,569 139,573 L862,894 Q877,900 888.5,888.5 Q900,877 894,862 L573,138 Q566,125 551,124 M236,563 L505,525 Q513,524 518.5,518 Q524,512 525,504 L563,235 L825,824" />
        <glyph
          glyph-name="qua-change-f"
          unicode="&#xf0f8;"
          horiz-adv-x="1024" d=" M1018,256 L864,346 Q856,350 847.5,346.5 Q839,343 838,333 L838,275 Q839,275 835,275 L170,275 Q170,275 170,275 Q125,276 96.5,304.5 Q68,333 68,377.5 Q68,422 96.5,450.5 Q125,479 170,480 L854,480 Q854,480 858,480 Q927,482 973,528.5 Q1019,575 1021,646 Q1019,715 975,761 Q931,807 864,813 Q860,813 861,813 L186,813 L186,870 Q185,880 177.5,884 Q170,888 160,883 L6,794 Q-1,788 -1,779 Q-1,770 6,765 L160,675 Q168,671 176.5,674.5 Q185,678 186,688 L186,749 L854,749 Q899,748 927.5,719.5 Q956,691 956,646.5 Q956,602 927.5,573.5 Q899,545 854,544 Q854,544 854,544 L170,544 Q98,542 51.5,495.5 Q5,449 3,378 Q5,309 51,262 Q97,215 166,211 Q166,211 170,211 L835,211 Q834,211 838,211 L838,154 Q839,144 846.5,140 Q854,136 864,141 L1018,230 Q1025,234 1025,242.5 Q1025,251 1018,256" />
        <glyph
          glyph-name="apt-jiantouyou-f"
          unicode="&#xf1c1;"
          horiz-adv-x="1024" d=" M711,543 L377,877 Q363,891 344,891 Q325,891 310.5,877 Q296,863 296,844 Q296,825 310,810 L610,510 L310,209 Q296,195 296,176 Q296,157 310.5,142.5 Q325,128 344,128 Q363,128 377,142 L711,476 Q725,491 725,510 Q725,529 711,543" />
        <glyph
          glyph-name="apt-jiantouzuo-f"
          unicode="&#xf1c3;"
          horiz-adv-x="1024" d=" M714,209 L414,510 L714,810 Q728,825 728,844 Q728,863 713.5,877 Q699,891 680,891 Q661,891 647,877 L313,543 Q299,529 299,510 Q299,491 313,476 L647,142 Q661,128 680,128 Q699,128 713.5,142.5 Q728,157 728,176 Q728,195 714,209" />
        <glyph
          glyph-name="mob-fangxingweigouxuan-f"
          unicode="&#xf35f;"
          horiz-adv-x="1024" d=" M752,896 L272,896 Q211,894 170.5,853.5 Q130,813 128,752 L128,272 Q130,211 170.5,170.5 Q211,130 272,128 L752,128 Q813,130 853.5,170.5 Q894,211 896,272 L896,752 Q894,813 853.5,853.5 Q813,894 752,896 M864,272 Q863,224 831.5,192.5 Q800,161 752,160 L272,160 Q224,161 192.5,192.5 Q161,224 160,272 L160,752 Q161,800 192.5,831.5 Q224,863 272,864 L752,864 Q800,863 831.5,831.5 Q863,800 864,752" />
        <glyph
          glyph-name="mob-bianji-o"
          unicode="&#xf3d5;"
          horiz-adv-x="1024" d=" M920,152 Q920,142 913,135 Q906,128 896,128 L128,128 Q118,128 111,135 Q104,142 104,152 Q104,162 111,169 Q118,176 128,176 L896,176 Q906,176 913,169 Q920,162 920,152 M192,250 L244,437 L687,881 Q703,896 721,896 Q739,896 755,881 L856,779 Q872,764 872,745.5 Q872,727 856,712 L413,268 L226,216 Q206,212 197,221.5 Q188,231 192,250 M637,762 L738,661 L806,728 Q819,740 818.5,745.5 Q818,751 806,762 L738,830 Q727,843 721.5,843 Q716,843 704,830 M315,441 Q325,431 357,399 L417,339 L704,627 L603,728 M243,267 L383,306 L282,407" />
        <glyph
          glyph-name="mob-jinzhi-o"
          unicode="&#xf3fa;"
          horiz-adv-x="1024" d=" M512,928 Q335,924 217.5,806.5 Q100,689 96,512 Q100,335 217.5,217.5 Q335,100 512,96 Q689,100 806.5,217.5 Q924,335 928,512 Q924,689 806.5,806.5 Q689,924 512,928 M745,228 L228,745 Q251,773 279,796 L796,279 Q773,251 745,228" />
        <glyph
          glyph-name="mob-36jia-f"
          unicode="&#xf470;"
          horiz-adv-x="1024" d=" M864,512 Q864,498 855,489 Q846,480 832,480 L544,480 L544,192 Q544,178 535,169 Q526,160 512,160 Q498,160 489,169 Q480,178 480,192 L480,480 L192,480 Q178,480 169,489 Q160,498 160,512 Q160,526 169,535 Q178,544 192,544 L480,544 L480,832 Q480,846 489,855 Q498,864 512,864 Q526,864 535,855 Q544,846 544,832 L544,544 L832,544 Q846,544 855,535 Q864,526 864,512" />
        <glyph
          glyph-name="mob-fangxingyigouxuan-f"
          unicode="&#xf496;"
          horiz-adv-x="1024" d=" M752,896 L272,896 Q211,894 170.5,853.5 Q130,813 128,752 L128,272 Q130,211 170.5,170.5 Q211,130 272,128 L752,128 Q813,130 853.5,170.5 Q894,211 896,272 L896,752 Q894,813 853.5,853.5 Q813,894 752,896 M864,272 Q863,224 831.5,192.5 Q800,161 752,160 L272,160 Q224,161 192.5,192.5 Q161,224 160,272 L160,752 Q161,800 192.5,831.5 Q224,863 272,864 L752,864 Q800,863 831.5,831.5 Q863,800 864,752 M759,663 Q768,653 768,640 Q768,627 759,617 L471,329 Q461,320 448,320 Q435,320 425,329 L265,489 Q256,499 256,512 Q256,525 265.5,534.5 Q275,544 288,544 Q301,544 311,535 L448,397 L713,663 Q723,672 736,672 Q749,672 759,663" />
        <glyph
          glyph-name="ops-shangchuan-f"
          unicode="&#xf50a;"
          horiz-adv-x="1024" d=" M663,311 Q672,301 672,288 Q672,275 662.5,265.5 Q653,256 640,256 Q627,256 617,265 L544,339 L544,128 Q544,114 535,105 Q526,96 512,96 Q498,96 489,105 Q480,114 480,128 L480,339 L407,265 Q397,256 384,256 Q371,256 361.5,265.5 Q352,275 352,288 Q352,301 361,311 L489,439 Q499,448 512,448 Q525,448 535,439 M768,704 Q743,704 720,698 Q713,796 646,861 Q579,926 480,928 Q378,925 310.5,857.5 Q243,790 240,688 L241,672 L239,672 Q164,670 114.5,620.5 Q65,571 63,496 Q65,421 114.5,371.5 Q164,322 239,320 L288,320 Q302,320 311,329 Q320,338 320,352 Q320,366 311,375 Q302,384 288,384 L238,384 Q191,385 159.5,417 Q128,449 127,496 Q128,544 159.5,575.5 Q191,607 239,608 Q255,608 270,604 Q288,599 301,612 Q314,625 310,643 Q304,665 304,688 Q306,763 356,812.5 Q406,862 480,864 Q555,862 604.5,812.5 Q654,763 656,688 Q656,671 653,655 Q651,645 654.5,636.5 Q658,628 666,622.5 Q674,617 683.5,616.5 Q693,616 701,621 Q732,640 768,640 Q823,639 859,603 Q895,567 896,512 Q895,458 859,422 Q823,386 768,384 L736,384 Q723,384 714,375 Q705,366 705,352.5 Q705,339 714,330 Q723,321 736,320 L768,320 Q850,322 904,376.5 Q958,431 960,512 Q958,594 903.5,648 Q849,702 768,704" />
        <glyph
          glyph-name="ops-xiazai1-f"
          unicode="&#xf50b;"
          horiz-adv-x="1024" d=" M663,279 Q672,269 672,256 Q672,243 663,233 L535,105 Q525,96 512,96 Q499,96 489,105 L361,233 Q352,243 352,256 Q352,269 361.5,278.5 Q371,288 384,288 Q397,288 407,279 L480,205 L480,416 Q480,430 489,439 Q498,448 512,448 Q526,448 535,439 Q544,430 544,416 L544,205 L617,279 Q627,288 640,288 Q653,288 663,279 M768,704 Q743,704 720,698 Q713,796 646,861 Q579,926 480,928 Q378,925 310.5,857.5 Q243,790 240,688 L241,672 L239,672 Q164,670 114.5,620.5 Q65,571 63,496 Q65,421 114.5,371.5 Q164,322 239,320 L320,320 Q334,320 343,329 Q352,338 352,352 Q352,366 343,375 Q334,384 320,384 L238,384 Q191,385 159.5,417 Q128,449 127,496 Q128,544 159.5,575.5 Q191,607 239,608 Q255,608 270,604 Q288,599 301,612 Q314,625 310,643 Q304,665 304,688 Q306,763 356,812.5 Q406,862 480,864 Q555,862 604.5,812.5 Q654,763 656,688 Q656,671 653,655 Q651,645 654.5,636.5 Q658,628 666,622.5 Q674,617 683.5,616.5 Q693,616 701,621 Q732,640 768,640 Q823,639 859,603 Q895,567 896,512 Q895,458 859,422 Q823,386 768,384 L704,384 Q691,384 682,375 Q673,366 673,352.5 Q673,339 682,330 Q691,321 704,320 L768,320 Q850,322 904,376.5 Q958,431 960,512 Q958,594 903.5,648 Q849,702 768,704" />
        <glyph
          glyph-name="ops-sousuo-f"
          unicode="&#xf50c;"
          horiz-adv-x="1024" d=" M919,151 L746,324 Q786,372 809,432 Q832,492 832,560 Q828,716 724,820 Q620,924 464,928 Q308,924 204,820 Q100,716 96,560 Q100,404 204,300 Q308,196 464,192 Q532,192 592,215 Q652,238 700,278 L873,105 Q883,96 896,96 Q909,96 918.5,105.5 Q928,115 928,128 Q928,141 919,151 M464,256 Q335,259 249,345 Q163,431 160,560 Q163,689 249,775 Q335,861 464,864 Q593,861 679,775 Q765,689 768,560 Q765,431 679,345 Q593,259 464,256" />
        <glyph
          glyph-name="ops-xiaoxi1-f"
          unicode="&#xf50d;"
          horiz-adv-x="1024" d=" M560,576 Q559,556 545.5,542.5 Q532,529 512,529 Q492,529 478.5,542.5 Q465,556 465,576 Q465,596 478.5,609.5 Q492,623 512,623 Q532,623 545.5,609.5 Q559,596 560,576 M352,624 Q332,623 318.5,609.5 Q305,596 305,576 Q305,556 318.5,542.5 Q332,529 352,529 Q372,529 385.5,542.5 Q399,556 399,576 Q399,596 385.5,609.5 Q372,623 352,624 M896,800 L896,352 Q895,311 868,284 Q841,257 800,256 L507,256 L361,142 Q343,128 320,128 Q293,129 275,147 Q257,165 256,192 L256,256 L224,256 Q183,257 156,284 Q129,311 128,352 L128,800 Q129,841 156,868 Q183,895 224,896 L800,896 Q841,895 868,868 Q895,841 896,800 M832,800 Q832,814 823,823 Q814,832 800,832 L224,832 Q210,832 201,823 Q192,814 192,800 L192,352 Q192,338 201,329 Q210,320 224,320 L320,320 L320,192 L485,320 L800,320 Q814,320 823,329 Q832,338 832,352 M672,624 Q652,623 638.5,609.5 Q625,596 625,576 Q625,556 638.5,542.5 Q652,529 672,529 Q692,529 705.5,542.5 Q719,556 719,576 Q719,596 705.5,609.5 Q692,623 672,624" />
        <glyph
          glyph-name="ops-yonghu1-f"
          unicode="&#xf50e;"
          horiz-adv-x="1024" d=" M816,325 Q775,352 733.5,373 Q692,394 659,406 Q671,422 683.5,444.5 Q696,467 705,495 Q719,498 732,510.5 Q745,523 756,549 Q766,573 764.5,607 Q763,641 742,666 Q752,698 747.5,751 Q743,804 684,865 Q619,928 512,928 Q405,928 340,865 Q281,804 276.5,751 Q272,698 282,666 Q261,641 259.5,607 Q258,573 268,549 Q280,523 292.5,510.5 Q305,498 319,495 Q328,467 340.5,444.5 Q353,422 365,406 Q332,394 290.5,373 Q249,352 208,325 Q156,291 111.5,240.5 Q67,190 64,128 Q65,114 74,105 Q83,96 96,96 L928,96 Q942,96 951,105 Q960,114 960,128 Q957,190 912.5,240.5 Q868,291 816,325 M135,160 Q158,214 244,272 Q294,306 341.5,327.5 Q389,349 412,353 Q427,356 434,369 Q437,374 439.5,380.5 Q442,387 443,398 Q444,411 435,422 Q423,433 404.5,461 Q386,489 376,529 Q372,544 358,550 Q347,555 340,556 L337,556 Q335,557 327,574 Q325,579 323.5,587.5 Q322,596 323,607 Q326,623 330,623 Q339,628 344,636.5 Q349,645 348,656 Q347,667 344,679 Q336,708 339.5,743 Q343,778 384,820 Q431,864 512,864 Q593,864 639,819 Q681,777 684,742 Q687,707 679,679 Q677,667 675.5,656 Q674,645 679,636.5 Q684,628 694,623 Q697,623 700,606 Q701,596 700,587.5 Q699,579 697,574 Q689,556 687,556 L684,555 Q677,555 665,550 Q651,543 647,528 Q637,489 618.5,461 Q600,433 589,421 Q580,411 581,397 Q581,387 583.5,380.5 Q586,374 590,369 Q597,356 612,353 Q635,348 682,327 Q729,306 780,272 Q866,213 889,160" />
        <glyph
          glyph-name="ops-gouwuche-f"
          unicode="&#xf50f;"
          horiz-adv-x="1024" d=" M352,288 Q311,287 284,260 Q257,233 257,192 Q257,151 284,124 Q311,97 352,97 Q393,97 420,124 Q447,151 447,192 Q447,233 420,260 Q393,287 352,288 M352,160 Q338,160 329,169 Q320,178 320,192 Q320,206 329,215 Q338,224 352,224 Q366,224 375,215 Q384,206 384,192 Q384,178 375,169 Q366,160 352,160 M921,756 Q911,768 896,768 L247,768 L223,902 Q221,913 212.5,920.5 Q204,928 192,928 L128,928 Q114,928 105,919 Q96,910 96,896 Q96,882 105,873 Q114,864 128,864 L165,864 L257,346 Q259,335 267.5,327.5 Q276,320 288,320 L800,320 Q814,320 823,329 Q832,338 832,352 Q832,366 823,375 Q814,384 800,384 L315,384 L304,448 L840,448 Q851,448 860,455 Q869,462 871,473 L927,729 Q930,744 921,756 M814,512 L292,512 L258,704 L856,704 M736,288 Q695,287 668,260 Q641,233 641,192 Q641,151 668,124 Q695,97 736,97 Q777,97 804,124 Q831,151 831,192 Q831,233 804,260 Q777,287 736,288 M736,160 Q722,160 713,169 Q704,178 704,192 Q704,206 713,215 Q722,224 736,224 Q750,224 759,215 Q768,206 768,192 Q768,178 759,169 Q750,160 736,160" />
        <glyph
          glyph-name="ops-shanchu-f"
          unicode="&#xf513;"
          horiz-adv-x="1024" d=" M416,224 Q402,224 393,233 Q384,242 384,256 L384,672 Q384,686 393,695 Q402,704 416,704 Q430,704 439,695 Q448,686 448,672 L448,256 Q448,242 439,233 Q430,224 416,224 M768,224 Q767,197 749,179 Q731,161 704,160 L320,160 Q293,161 275,179 Q257,197 256,224 L256,736 L192,736 L192,224 Q193,170 229.5,133.5 Q266,97 320,96 L704,96 Q758,97 794.5,133.5 Q831,170 832,224 L832,736 L768,736 M896,824 Q896,810 887,801 Q878,792 864,792 L160,792 Q146,792 137,801 Q128,810 128,824 Q128,838 137,847 Q146,856 160,856 L384,856 L384,864 Q385,905 412,932 Q439,959 480,960 L544,960 Q585,959 612,932 Q639,905 640,864 L640,856 L864,856 Q878,856 887,847 Q896,838 896,824 M576,864 Q576,878 567,887 Q558,896 544,896 L480,896 Q466,896 457,887 Q448,878 448,864 L448,856 L576,856 M640,256 L640,672 Q640,686 631,695 Q622,704 608,704 Q594,704 585,695 Q576,686 576,672 L576,256 Q576,242 585,233 Q594,224 608,224 Q622,224 631,233 Q640,242 640,256" />
        <glyph
          glyph-name="ops-fuzhi-f"
          unicode="&#xf514;"
          horiz-adv-x="1024" d=" M224,288 L256,288 L256,224 L224,224 Q183,225 156,252 Q129,279 128,320 L128,832 Q129,873 156,900 Q183,927 224,928 L606,928 Q637,927 661.5,909.5 Q686,892 696,864 L224,864 Q210,864 201,855 Q192,846 192,832 L192,320 Q192,306 201,297 Q210,288 224,288 M896,704 L896,192 Q895,151 868,124 Q841,97 800,96 L416,96 Q375,97 348,124 Q321,151 320,192 L320,704 Q321,745 348,772 Q375,799 416,800 L800,800 Q841,799 868,772 Q895,745 896,704 M832,704 Q832,718 823,727 Q814,736 800,736 L416,736 Q402,736 393,727 Q384,718 384,704 L384,192 Q384,178 393,169 Q402,160 416,160 L800,160 Q814,160 823,169 Q832,178 832,192" />
        <glyph
          glyph-name="ops-tihuan-f"
          unicode="&#xf515;"
          horiz-adv-x="1024" d=" M883,314 L627,506 Q611,517 594,508 Q577,499 576,480 L576,384 L384,384 Q303,386 248.5,440.5 Q194,495 192,576 Q192,590 183,599 Q174,608 160,608 Q146,608 137,599 Q128,590 128,576 L128,512 Q131,376 221.5,285.5 Q312,195 448,192 L576,192 L576,96 Q577,77 594,67 Q601,64 608,64 Q619,64 627,70 L883,262 Q896,272 896,288 Q896,304 883,314 M640,160 L640,224 Q640,238 631,247 Q622,256 608,256 L448,256 Q382,257 327.5,286 Q273,315 238,366 Q269,344 306,332 Q343,320 384,320 L608,320 Q622,320 631,329 Q640,338 640,352 L640,416 L811,288 M576,832 L448,832 L448,928 Q447,947 430,956 Q413,965 397,954 L141,762 Q128,752 128,736 Q128,720 141,710 L397,518 Q413,507 430,516 Q447,525 448,544 L448,640 L640,640 Q721,638 775.5,583.5 Q830,529 832,448 Q832,434 841,425 Q850,416 864,416 Q878,416 887,425 Q896,434 896,448 L896,512 Q893,648 802.5,738.5 Q712,829 576,832 M640,704 L416,704 Q402,704 393,695 Q384,686 384,672 L384,608 L213,736 L384,864 L384,800 Q384,786 393,777 Q402,768 416,768 L576,768 Q642,767 696.5,738 Q751,709 786,658 Q755,680 718,692 Q681,704 640,704" />
        <glyph
          glyph-name="ops-xiangqing-f"
          unicode="&#xf516;"
          horiz-adv-x="1024" d=" M288,384 Q288,398 297,407 Q306,416 320,416 L544,416 Q558,416 567,407 Q576,398 576,384 Q576,370 567,361 Q558,352 544,352 L320,352 Q306,352 297,361 Q288,370 288,384 M704,288 L320,288 Q306,288 297,279 Q288,270 288,256 Q288,242 297,233 Q306,224 320,224 L704,224 Q718,224 727,233 Q736,242 736,256 Q736,270 727,279 Q718,288 704,288 M736,768 L736,512 Q736,498 727,489 Q718,480 704,480 L320,480 Q306,480 297,489 Q288,498 288,512 L288,768 Q288,782 297,791 Q306,800 320,800 L704,800 Q718,800 727,791 Q736,782 736,768 M672,736 L352,736 L352,544 L672,544 M864,832 L864,192 Q863,151 836,124 Q809,97 768,96 L256,96 Q215,97 188,124 Q161,151 160,192 L160,832 Q161,873 188,900 Q215,927 256,928 L768,928 Q809,927 836,900 Q863,873 864,832 M800,832 Q800,846 791,855 Q782,864 768,864 L256,864 Q242,864 233,855 Q224,846 224,832 L224,192 Q224,178 233,169 Q242,160 256,160 L768,160 Q782,160 791,169 Q800,178 800,192" />
        <glyph
          glyph-name="ops-appjiankonge06d-f"
          unicode="&#xe06d;"
          horiz-adv-x="1024" d=" M128 896V128.003H895.997V896H128zM831.997 192.003H192V832H831.997V192.003zM301.254 464.473L437.018 600.237L301.254 736.001L255.999 690.746L346.509 600.237L255.999 509.728L301.254 464.473zM767.997 352.002H511.998V288.002H767.997V352.002z" />
    </font>
</defs>
</svg>
